Николай Носков. Юбилейный концерт 6:0 [2016, Rock, Pop, Romance, HDTVRip-AVC]

Страницы:  1
Ответить
Автор
Сообщение

Porkalator

Стаж: 9 лет 9 месяцев

Сообщений: 87

Porkalator · 09-Янв-17 18:20 (2 года 7 месяцев назад, ред. 12-Янв-17 16:29)

Николай Носков. Юбилейный концерт 6:0
Жанр: Rock, Pop, Romance, Pop Rock
Продолжительность: 01:32:58
Год выпуска: 2016
Описание: Николай Носков, один из лучших голосов российской эстрады, 14 октября 2016 года отметил в Крокус Сити Холле юбилей. По его словам, в игре с Судьбой, счёт 6:0 в его пользу. В этот вечер песни звучали в сопровождении оркестра под управлением Феликса Арановского, струнного квартета Magnetic Fantasy и рок-группы Носкова. А вот с хором Сретенского монастыря певец выступил впервые – мощно и драматично прозвучала в их совместном исполнении «Чёрный ворон». Ещё один суперхит Носкова «На меньшее я не согласен» прозвучал в дуэте с белорусским молодым исполнителем Ivan, который представлял свою страну на Евровидении и на юбилее спел очень достойно. Концерт на радость поклонникам получился длинный и разнообразный: прозвучали самые известные и редко исполняемые песни. Носков из тех исполнителей, что с годами становятся только лучше и внешне, и на слух. Сильный и выразительный голос певца по-прежнему отлично звучит в любом сопровождении и без него. Когда после оваций и скандирования поздравлений Носков вышел на бис, зал уже не просто подпевал, а практически полностью спел его хит «Это здорово».
Треклист:
01. Грибной дождь
02. Мёд
03. Оно того стоит
04. Снег
05. Пробуждение
06. Озёра
07. Зимняя ночь
08. Чёрный ворон
09. Исповедь
10. Романс
11. Зачем
12. Спасибо
13. На меньшее я не согласен
14. Я тебя прошу
15. Паранойя
16. Я тебя люблю
17. Это здорово
Источник: Собственный рип с HDTV-версии Николай Носков. Юбилейный концерт 6:0 [2016, Pop, HDTV, 1080i]
Качество: HDTVRip-AVC
Контейнер: MKV
Видео кодек: H.264
Аудио кодек: AC3
Видео: H264; 1024x576 (16:9); 25.000 fps; 2318 kbps
Аудио: AC3; 48 kHz; 192 kbps; 2 ch
MediaInfo
General
Unique ID : 234434686295283916783524697957473436922 (0xB05E7A6D89A1D51CBE5A47AC8BEFC4FA)
Complete name : E:\Николай Носков. Юбилейный концерт 6_0 (2016).mkv
Format : Matroska
Format version : Version 2
File size : 1.63 GiB
Duration : 1 h 32 min
Overall bit rate : 2 512 kb/s
Encoded date : UTC 2017-01-07 21:24:56
Writing application : mkvmerge v6.1.0 ('Old Devil') built on Mar 4 2013 09:10:42
Writing library : libebml v1.3.0 + libmatroska v1.4.0
Video
ID : 1
Format : AVC
Format/Info : Advanced Video Codec
Format profile : [email protected]
Format settings, CABAC : Yes
Format settings, ReFrames : 6 frames
Codec ID : V_MPEG4/ISO/AVC
Duration : 1 h 32 min
Bit rate : 2 318 kb/s
Width : 1 024 pixels
Height : 576 pixels
Display aspect ratio : 16:9
Frame rate mode : Constant
Frame rate : 25.000 FPS
Color space : YUV
Chroma subsampling : 4:2:0
Bit depth : 8 bits
Scan type : Progressive
Bits/(Pixel*Frame) : 0.157
Stream size : 1.47 GiB (90%)
Writing library : x264 core 130 r2273 b3065e6
Encoding settings : cabac=1 / ref=6 / deblock=1:0:-1 / analyse=0x3:0x133 / me=umh / subme=9 / psy=1 / psy_rd=1.00:0.15 / mixed_ref=1 / me_range=24 / chroma_me=1 / trellis=2 / 8x8dct=1 / cqm=0 / deadzone=21,11 / fast_pskip=1 / chroma_qp_offset=-3 / threads=6 / lookahead_threads=1 / sliced_threads=0 / nr=0 / decimate=0 / interlaced=0 / bluray_compat=0 / constrained_intra=0 / bframes=16 / b_pyramid=2 / b_adapt=2 / b_bias=0 / direct=3 / weightb=1 / open_gop=0 / weightp=2 / keyint=250 / keyint_min=25 / scenecut=40 / intra_refresh=0 / rc_lookahead=60 / rc=2pass / mbtree=1 / bitrate=2318 / ratetol=1.0 / qcomp=0.60 / qpmin=0 / qpmax=69 / qpstep=4 / cplxblur=20.0 / qblur=0.5 / ip_ratio=1.40 / aq=1:1.00
Default : Yes
Forced : No
Audio
ID : 2
Format : AC-3
Format/Info : Audio Coding 3
Mode extension : CM (complete main)
Format settings, Endianness : Big
Codec ID : A_AC3
Duration : 1 h 32 min
Bit rate mode : Constant
Bit rate : 192 kb/s
Channel(s) : 2 channels
Channel positions : Front: L R
Sampling rate : 48.0 kHz
Frame rate : 31.250 FPS (1536 spf)
Bit depth : 16 bits
Compression mode : Lossy
Stream size : 128 MiB (8%)
Default : Yes
Forced : No
Скриншоты
H.264 log
FILES
------------------------------
Николай Носков. Юбилейный концерт 6.0 НТВ-HD 2017.01.04_kuzmichm2196.ts >
Николай Носков. Юбилейный концерт 6_0.mkv
TASK
------------------------------
Format: MKV
Duration: 01:32:58:840 (139471)
VideoDecoder: DirectShowSource
Resolution: 1920x1080 > 1024x576
Aspect: 1.7778
VCodecPreset: Custom x264 CLI
VEncodingMode: TwoPass
VideoCodec: h264 > x264 (x64)
VideoBitrate: 12491 > 2318
Quality: 0.241 > 0.157
Framerate: 25.000
SourceType: INTERLACED
FieldOrder: TFF
Deinterlacer: Yadif
AEncodingPreset: AC3 192k
AudioCodec: MP2 > AC3
AudioBitrate: 192
Samplerate: 48000
Channels: 2
Normalize: 70%
Accurate: 10%
Gain: 7.390
SCRIPT
------------------------------
Import("C:\Program Files (x86)\XviD4PSP 5\dlls\AviSynth\functions\AudioFunctions.avs")
Import("C:\Program Files (x86)\XviD4PSP 5\dlls\AviSynth\functions\VideoFunctions.avs")
LoadCPlugin("C:\Program Files (x86)\XviD4PSP 5\dlls\AviSynth\plugins\yadif.dll")
LoadPlugin("C:\Program Files (x86)\XviD4PSP 5\dlls\AviSynth\plugins\ColorMatrix.dll")
DirectShowSource("I:\Николай Носков. Юбилейный концерт 6.0 НТВ-HD 2017.01.04_kuzmichm2196.ts", fps=25.000)
AmplifydB(7.390)
ConvertToYV12(interlaced = true)
ColorMatrix(interlaced=true)
Yadif(order=1)
Lanczos4Resize(1024, 576)
###[FILTERING]###
###[FILTERING]###
VIDEO ENCODING
------------------------------
Encoding video to: E:\Temp\0282.264
x264 2318kbps 1024x576 25.000fps (139471 frames)
...first pass...
avs4x264.exe: -L x264_64.exe --pass 1 --bitrate 2318 --preset slower --profile high --level 4.1 --ref 6 --deblock 0:-1 --merange 24 --bframes 16 --no-dct-decimate --psy-rd 1.00:0.15 --sar 1:1 --stats "E:\Temp\0282.log" --output NUL "E:\Temp\0282.avs"
raw [info]: 1024x576p 1:1 @ 25/1 fps (cfr)
x264 [info]: using SAR=1/1
x264 [info]: using cpu capabilities: MMX2 SSE2Fast SSSE3 SSE4.2
x264 [info]: profile Main, level 4.1
x264 [info]: frame I:978 Avg QP:17.47 size: 66337
x264 [info]: frame P:38685 Avg QP:20.87 size: 24324
x264 [info]: frame B:99808 Avg QP:22.27 size: 6134
x264 [info]: consecutive B-frames: 2.9% 5.6% 12.3% 61.8% 9.4% 6.7% 0.7% 0.3% 0.1% 0.0% 0.0% 0.0% 0.0% 0.0% 0.0% 0.0% 0.0%
x264 [info]: mb I I16..4: 38.0% 0.0% 62.0%
x264 [info]: mb P I16..4: 34.6% 0.0% 0.0% P16..4: 54.3% 0.0% 0.0% 0.0% 0.0% skip:11.1%
x264 [info]: mb B I16..4: 5.5% 0.0% 0.0% B16..8: 29.4% 0.0% 0.0% direct:16.3% skip:48.8% L0:32.5% L1:42.2% BI:25.3%
x264 [info]: final ratefactor: 20.35
x264 [info]: direct mvs spatial:99.7% temporal:0.3%
x264 [info]: coded y,uvDC,uvAC intra: 38.1% 62.6% 26.3% inter: 19.9% 29.2% 7.7%
x264 [info]: i16 v,h,dc,p: 45% 25% 19% 11%
x264 [info]: i4 v,h,dc,ddl,ddr,vr,hd,vl,hu: 24% 20% 11% 7% 8% 8% 7% 7% 7%
x264 [info]: i8c dc,h,v,p: 50% 20% 22% 7%
x264 [info]: Weighted P-Frames: Y:7.7% UV:6.5%
x264 [info]: kb/s:2320.26
x264 [total]: encoded 139471 frames, 8.65 fps, 2320.26 kb/s
...last pass...
avs4x264.exe: -L x264_64.exe --pass 2 --bitrate 2318 --preset slower --profile high --level 4.1 --ref 6 --deblock 0:-1 --merange 24 --bframes 16 --no-dct-decimate --psy-rd 1.00:0.15 --sar 1:1 --stats "E:\Temp\0282.log" --output "E:\Temp\0282.264" "E:\Temp\0282.avs"
raw [info]: 1024x576p 1:1 @ 25/1 fps (cfr)
x264 [info]: using SAR=1/1
x264 [info]: using cpu capabilities: MMX2 SSE2Fast SSSE3 SSE4.2
x264 [info]: profile High, level 4.1
x264 [info]: frame I:978 Avg QP:18.05 size: 69145
x264 [info]: frame P:38685 Avg QP:21.13 size: 23733
x264 [info]: frame B:99808 Avg QP:23.11 size: 6319
x264 [info]: consecutive B-frames: 2.9% 5.6% 12.3% 61.8% 9.4% 6.7% 0.7% 0.3% 0.1% 0.0% 0.0% 0.0% 0.0% 0.0% 0.0% 0.0% 0.0%
x264 [info]: mb I I16..4: 11.9% 65.4% 22.7%
x264 [info]: mb P I16..4: 6.7% 14.9% 1.7% P16..4: 41.7% 13.6% 10.7% 0.7% 0.3% skip: 9.7%
x264 [info]: mb B I16..4: 0.6% 1.3% 0.2% B16..8: 37.7% 7.4% 1.9% direct: 6.9% skip:44.0% L0:39.0% L1:46.3% BI:14.7%
x264 [info]: 8x8 transform intra:64.2% inter:67.6%
x264 [info]: direct mvs spatial:92.6% temporal:7.4%
x264 [info]: coded y,uvDC,uvAC intra: 58.0% 76.1% 49.7% inter: 19.3% 30.4% 10.8%
x264 [info]: i16 v,h,dc,p: 42% 17% 12% 30%
x264 [info]: i8 v,h,dc,ddl,ddr,vr,hd,vl,hu: 11% 8% 9% 9% 13% 13% 13% 12% 13%
x264 [info]: i4 v,h,dc,ddl,ddr,vr,hd,vl,hu: 12% 11% 5% 9% 13% 13% 13% 10% 13%
x264 [info]: i8c dc,h,v,p: 39% 22% 19% 20%
x264 [info]: Weighted P-Frames: Y:7.7% UV:6.5%
x264 [info]: ref P L0: 54.5% 11.8% 16.3% 6.4% 5.3% 4.9% 0.8% 0.0%
x264 [info]: ref B L0: 83.8% 9.1% 4.4% 1.8% 0.9%
x264 [info]: ref B L1: 95.3% 4.7%
x264 [info]: kb/s:2317.96
x264 [total]: encoded 139471 frames, 5.36 fps, 2317.96 kb/s
Download
Сайт не распространяет и не хранит электронные версии произведений, а лишь предоставляет доступ к создаваемому пользователями каталогу ссылок на торрент-файлы, которые содержат только списки хеш-сумм
Как скачивать? (для скачивания .torrent файлов необходима регистрация)
[Профиль]  [ЛС] 

Till_Lindemann3

Стаж: 9 лет 8 месяцев

Сообщений: 14

Till_Lindemann3 · 21-Окт-17 15:12 (спустя 9 месяцев)

mp3 будет?
[Профиль]  [ЛС] 
 
Ответить
Loading...
Error